<?xml version="1.0" standalone="no"?>
<!DOCTYPE svg PUBLIC "-//W3C//DTD SVG 1.1//EN" "http://www.w3.org/Graphics/SVG/1.1/DTD/svg11.dtd" >
<svg xmlns="http://www.w3.org/2000/svg">
<metadata>Generated by IcoMoon</metadata>
<defs>
<font id="icomoon" horiz-adv-x="1024">
<font-face units-per-em="1024" ascent="960" descent="-64" />
<missing-glyph horiz-adv-x="1024" />
<glyph unicode="&#x20;" horiz-adv-x="512" d="" />
<glyph unicode="&#xe900;" glyph-name="arrow-narrow-left" d="M376.096 649.504c-3.9-1.157-7.303-2.816-10.357-4.941l0.117 0.077c-2.688-1.952-44.576-43.328-93.056-91.968-84.512-84.832-88.192-88.8-89.792-96.576-0.529-2.457-0.832-5.281-0.832-8.175 0-2.838 0.291-5.607 0.846-8.28l-0.046 0.263c1.6-7.808 5.216-11.648 93.248-99.68s91.872-91.648 99.68-93.248c24.768-5.056 43.552 13.728 38.432 38.464-1.6 7.712-4.768 11.2-62.464 69.12l-60.768 61.024h258.848c182.592 0 261.44 0.544 267.648 1.888 31.68 6.784 32.544 53.056 1.12 60.992-5.792 1.44-76.416 1.952-267.744 1.952h-259.872l60.768 61.024c57.856 58.080 60.864 61.408 62.464 69.184 3.040 14.56-2.272 28.096-13.728 35.040-5.039 2.852-11.067 4.532-17.486 4.532-2.486 0-4.913-0.252-7.258-0.732l0.232 0.040z" />
<glyph unicode="&#xe901;" glyph-name="send-converted" horiz-adv-x="983" d="M851.149 863.457c-8.479-2.253-736.829-265.585-745.677-269.558-16.998-8.169-29.578-23.232-34.23-41.465l-0.095-0.438c-5.325-20.685 0.123-41.083 15.319-57.467 9.134-9.912 9.544-10.117 150.979-80.896l141.844-71.025 70.164-140.452c78.111-156.344 76.022-152.863 97.649-163.389 9.83-4.792 12.124-5.202 26.337-5.161 13.271 0.041 16.957 0.696 24.986 4.383 11.387 5.243 25.518 18.186 30.31 27.771 1.925 3.891 63.734 173.67 137.38 377.324 124.6 344.515 133.898 371.016 133.98 380.928 0.019 0.452 0.030 0.981 0.030 1.514 0 15.118-8.797 28.181-21.552 34.35l-0.228 0.099c-7.291 3.727-20.193 5.366-27.197 3.482zM552.018 572.396l-150.077-150.077-110.838 55.46c-60.989 30.474-110.879 55.828-110.879 56.32 0 1.065 515.686 187.884 519.373 188.17 1.352 0.082-65.085-67.338-147.579-149.873zM665.231 403.763c-110.58-331.805-142.52-417.727-174.784-503.491l80.535 244.091c-0.451-0.451-1.106-0.532-1.475-0.164 24.214-55.147 5.67-18.929-12.742 17.368l-42.841 93.102-54.927 109.773 149.299 149.422c82.125 82.207 149.545 149.217 149.791 148.972 0.287-0.287-41.533-116.859-92.856-259.072z" />
<glyph unicode="&#xe902;" glyph-name="book-2" d="M272.205 824.141c-6.554-1.357-19.226-6.016-28.16-10.368-13.696-6.707-18.611-10.342-31.718-23.45s-16.717-17.997-23.398-31.718c-13.978-28.621-13.133-8.576-13.133-310.605s-0.845-281.984 13.133-310.605c6.682-13.722 10.291-18.611 23.398-31.718 13.133-13.133 18.022-16.742 31.718-23.424 28.646-13.978 8.832-13.133 308.429-13.107 254.234 0.051 266.163 0.179 272.691 3.174 8.704 3.994 15.846 11.162 19.84 19.84 2.995 6.554 3.123 20.915 3.123 355.84s-0.128 349.286-3.123 355.84c-4.139 8.788-11.052 15.701-19.592 19.735l-0.248 0.105c-6.528 2.995-18.33 3.123-273.92 3.021-225.562-0.077-268.954-0.486-279.040-2.56zM773.12 533.376v-218.419l-248.755-0.512c-261.53-0.538-247.936-0.179-269.67-7.117l-3.866-1.229 0.461 205.363 0.435 205.338 4.019 7.68c6.938 13.363 17.894 22.477 30.566 25.446 3.507 0.845 114.458 1.587 246.605 1.69l240.205 0.179v-218.419zM369.485 653.005c-13.46-5.837-22.705-19.010-22.705-34.342s9.245-28.505 22.464-34.249l0.241-0.093c6.451-2.944 14.515-3.123 142.515-3.123s136.064 0.179 142.515 3.123c8.78 4.14 15.685 11.053 19.709 19.592l0.105 0.248c8.269 18.022-0.691 40.064-19.814 48.845-6.451 2.944-14.515 3.123-142.515 3.123s-136.064-0.179-142.515-3.123zM773.12 191.974v-47.821l-487.245 0.922-7.68 3.968c-17.946 9.318-26.445 23.142-26.445 42.957-0.026 10.112 0.819 14.413 3.994 20.48 6.938 13.363 17.894 22.477 30.566 25.446 3.507 0.845 114.458 1.587 246.605 1.69l240.205 0.179v-47.821z" />
<glyph unicode="&#xe903;" glyph-name="book" d="M279.040 793.376c-58.648-6.188-112.128-23.202-160.159-49.036l2.303 1.132c-17.44-9.344-24.896-15.968-29.216-25.824-3.104-7.168-3.232-16.736-3.232-293.184 0-315.552-0.832-292 10.752-304.224 7.023-7.476 16.973-12.133 28.010-12.133 0.21 0 0.42 0.002 0.629 0.005h-0.032c8-0.032 11.936 1.216 24.768 7.808 50.624 26.048 89.504 37.504 142.112 41.888 7.42 0.749 16.036 1.176 24.752 1.176s17.332-0.427 25.828-1.262l-1.076 0.085c52.736-4.256 93.792-16.32 142.4-41.856 12.928-6.784 16.352-7.872 25.12-7.872s12.192 1.088 25.12 7.872c48.608 25.536 89.664 37.6 142.4 41.856 7.42 0.749 16.036 1.176 24.752 1.176s17.332-0.427 25.828-1.262l-1.076 0.085c52.608-4.384 91.488-15.84 142.112-41.888 12.832-6.592 16.768-7.84 24.768-7.808 0.178-0.003 0.387-0.005 0.598-0.005 11.037 0 20.987 4.657 27.992 12.112l0.019 0.020c11.584 12.224 10.752-11.328 10.752 304.224 0 276.448-0.128 286.016-3.232 293.184-4.192 9.568-11.68 16.352-27.488 24.928-40.384 21.824-82.816 36.352-131.68 45.12-18.464 3.296-27.008 3.776-68.864 3.776s-50.4-0.48-68.864-3.776c-39.005-6.72-73.863-17.653-106.53-32.555l2.69 1.099-19.456-8.64-19.36 8.672c-29.665 13.731-64.149 24.577-100.206 30.839l-2.514 0.361c-16.064 2.848-28.96 3.68-62.080 4.096-6.11 0.14-13.309 0.219-20.526 0.219-9.886 0-19.738-0.149-29.553-0.446l1.439 0.034zM349.856 714.144c37.888-3.456 74.688-12.768 107.52-27.2l14.528-6.368 0.416-234.24c0.416-222.656 0.288-234.176-2.56-233.024-19.968 7.936-52.064 16.544-80.896 21.696-18.464 3.328-27.008 3.808-68.864 3.808s-50.4-0.48-68.864-3.808c-28.832-5.152-60.928-13.76-80.896-21.696-2.848-1.152-2.976 10.368-2.56 233.024l0.416 234.24 14.528 6.368c40.333 18.036 87.409 28.541 136.939 28.541 10.665 0 21.216-0.487 31.632-1.44l-1.339 0.099zM733.856 714.144c37.888-3.456 74.688-12.768 107.52-27.2l14.528-6.368 0.416-234.24c0.416-222.656 0.288-234.176-2.56-233.024-19.968 7.936-52.064 16.544-80.896 21.696-18.464 3.328-27.008 3.808-68.864 3.808s-50.4-0.48-68.864-3.808c-28.832-5.152-60.928-13.76-80.896-21.696-2.848-1.152-2.976 10.368-2.56 233.024l0.416 234.24 14.528 6.368c40.333 18.036 87.409 28.541 136.939 28.541 10.665 0 21.216-0.487 31.632-1.44l-1.339 0.099z" />
<glyph unicode="&#xe904;" glyph-name="briefcase" d="M397.664 868.512c-10.527-2.928-19.601-6.473-28.213-10.803l0.885 0.403c-13.6-6.72-18.688-10.496-31.648-23.456-13.024-13.024-16.704-18.016-23.424-31.68-3.415-6.572-6.77-14.463-9.549-22.619l-0.371-1.253c-1.088-4.224-2.464-23.424-3.040-42.688l-1.088-34.976-56.32-1.024c-34.912-0.608-59.232-1.76-64-3.040-9.419-3.185-17.307-6.56-24.883-10.457l1.011 0.473c-13.664-6.688-18.656-10.4-31.68-23.392-12.992-12.992-16.704-18.048-23.424-31.68-13.888-28.224-13.184-14.88-13.184-248.32 0-233.568-0.704-220.128 13.216-248.32 6.72-13.6 10.496-18.72 23.424-31.616 12.928-12.928 18.048-16.736 31.648-23.456 28.736-14.176 2.176-13.184 354.976-13.184s326.24-0.992 354.976 13.184c13.6 6.72 18.72 10.528 31.648 23.456 12.928 12.896 16.704 18.016 23.424 31.616 13.92 28.192 13.216 14.752 13.216 248.32s0.704 220.128-13.216 248.32c-6.72 13.6-10.496 18.72-23.424 31.616-12.96 12.96-18.016 16.704-31.648 23.424-6.561 3.428-14.448 6.813-22.599 9.633l-1.273 0.383c-4.768 1.28-29.088 2.432-64 3.040l-56.32 1.024-1.088 34.976c-0.576 19.264-1.952 38.464-3.040 42.688-3.142 9.392-6.508 17.282-10.41 24.85l0.458-0.978c-6.72 13.632-10.464 18.688-23.424 31.648-12.928 12.928-18.048 16.704-31.616 23.424-26.784 13.216-26.88 13.216-143.040 13.024-80.864-0.128-104.16-0.672-112.96-2.56zM616.416 787.968c4.416-2.176 10.816-7.072 14.24-10.88 10.656-11.776 11.68-15.936 11.808-47.488l0.096-28.16h-261.12l0.096 28.16c0.128 31.040 1.152 35.456 10.912 46.56 7.040 8.032 15.104 12.928 24.288 14.816 4.064 0.8 48.832 1.344 99.52 1.184l92.16-0.256 8-3.936zM827.968 618.4c9.152-4.16 19.52-14.208 24-23.296 3.904-7.968 3.936-8.48 4.448-86.016l0.512-78.016-8.192-4.096c-24.8-12.416-83.584-33.696-123.392-44.64-135.712-37.344-290.976-37.344-426.688 0-39.808 10.944-98.592 32.224-123.392 44.64l-8.192 4.096 0.512 78.016c0.576 85.856 0.32 83.648 11.52 96.416 7.072 8.032 15.136 12.928 24.288 14.752 4.064 0.832 144.864 1.376 312.864 1.216 280.128-0.224 306.016-0.48 311.712-3.072zM495.776 484c-13.714-6.548-23.021-20.306-23.021-36.238 0-10.975 4.416-20.918 11.569-28.15l-0.004 0.004c7.712-7.712 16.352-11.2 27.68-11.2 35.52 0 52.864 43.616 27.104 68.096-11.392 10.784-29.472 13.92-43.328 7.488zM187.264 335.584c57.44-22.784 126.88-41.312 192.48-51.328 80.64-12.352 183.872-12.352 264.512 0 65.248 9.984 135.328 28.672 192.48 51.328 9.152 3.616 17.472 6.592 18.432 6.592 1.184 0 1.6-25.92 1.248-80.64-0.512-80.256-0.544-80.672-4.448-88.64-4.48-9.088-14.848-19.136-24-23.296-5.696-2.592-31.552-2.816-315.968-2.816s-310.272 0.224-315.968 2.816c-10.248 5.26-18.461 13.246-23.854 23.007l-0.146 0.289c-3.904 7.968-3.936 8.384-4.448 88.64-0.352 54.72 0.064 80.64 1.248 80.64 0.96 0 9.28-2.976 18.432-6.592z" />
<glyph unicode="&#xe905;" glyph-name="calendar-event" d="M326.848 866.368c-8.778-4.154-15.686-11.062-19.734-19.592l-0.106-0.248c-2.624-5.76-3.136-11.328-3.2-34.56v-27.776h-29.952c-37.248 0-50.496-2.368-72.448-13.12-13.76-6.656-18.624-10.304-31.744-23.424s-16.704-17.984-23.424-31.68c-13.952-28.672-13.12-8.576-13.12-310.656 0-302.016-0.832-281.984 13.12-310.592 6.72-13.696 10.304-18.624 23.424-31.744s17.984-16.704 31.744-23.424c28.608-13.952 8.576-13.12 310.592-13.12s281.984-0.832 310.592 13.12c13.76 6.72 18.624 10.304 31.808 23.488 13.248 13.248 16.704 17.984 23.36 31.744 13.952 28.928 13.12 8.704 13.12 310.528 0 302.080 0.832 281.984-13.12 310.656-6.72 13.696-10.304 18.56-23.424 31.68s-17.984 16.768-31.744 23.424c-21.952 10.752-35.2 13.12-72.448 13.12h-29.952v27.776c-0.064 23.232-0.576 28.8-3.2 34.56-5.832 13.463-19.004 22.71-34.336 22.71s-28.504-9.247-34.243-22.469l-0.093-0.241c-2.624-5.76-3.136-11.328-3.136-34.56l-0.064-27.776h-266.24l-0.064 27.776c0 23.232-0.512 28.8-3.136 34.56-8.768 19.136-30.848 28.096-48.832 19.84zM303.808 681.408c0.064-30.592 1.536-36.608 11.264-46.336 6.73-6.792 16.060-10.997 26.372-10.997 15.322 0 28.475 9.283 34.143 22.531l0.092 0.242c2.624 5.696 3.136 11.328 3.136 34.56l0.064 27.712h266.24l0.064-27.712c0-30.592 1.472-36.608 11.2-46.336 6.73-6.792 16.060-10.997 26.372-10.997 15.322 0 28.475 9.283 34.143 22.531l0.092 0.242c2.624 5.696 3.136 11.328 3.2 34.688v27.84l30.336-0.576c27.776-0.512 30.912-0.832 37.952-4.544 10.24-5.312 17.344-12.352 22.336-22.080l4.096-8.064 1.024-145.92h-607.872l0.512 72.96c0.512 72.768 0.512 73.024 4.48 80.64 3.886 8.295 9.924 15.033 17.405 19.664l0.195 0.112c9.792 6.272 15.872 7.232 45.376 7.424l27.776 0.128v-27.712zM815.424 294.848l-0.512-158.336-4.096-8c-4.933-9.649-12.634-17.289-22.051-22.014l-0.285-0.13-7.68-3.968h-537.6l-8 4.096c-9.66 4.918-17.304 12.624-22.015 22.051l-0.129 0.285-3.968 7.68-0.512 158.336-0.448 158.272h607.744l-0.448-158.272zM326.848 354.368c-8.778-4.154-15.686-11.062-19.734-19.592l-0.106-0.248c-2.816-6.144-3.136-11.968-3.136-57.216 0-55.488 0.448-58.176 11.2-68.928s13.44-11.2 68.928-11.2 58.176 0.448 68.928 11.2c10.752 10.752 11.2 13.44 11.2 68.928s-0.448 58.176-11.2 68.928c-10.752 10.816-13.44 11.2-68.928 11.2-45.248 0-51.072-0.256-57.152-3.072zM389.12 277.312c0-4.544-0.576-5.12-5.12-5.12s-5.12 0.576-5.12 5.12c0 4.544 0.576 5.12 5.12 5.12s5.12-0.576 5.12-5.12z" />
<glyph unicode="&#xe906;" glyph-name="certificate" d="M198.835 780.723c-27.315-3.046-48.87-13.798-69.99-34.918-21.811-21.811-31.821-42.522-35.072-72.525-2.022-18.918-2.022-431.642 0-450.56 3.251-30.003 13.261-50.714 35.072-72.525 21.837-21.837 42.547-31.846 72.55-35.072 21.606-2.33 221.286-2.074 232.346 0.282 26.061 5.606 36.506 38.195 18.33 57.293-11.571 12.16-4.736 11.52-136.346 12.467-111.411 0.819-118.963 1.050-124.57 4.045-8.32 4.403-18.381 14.31-22.758 22.426l-3.712 6.81v459.11l4.634 7.859c5.018 8.525 13.517 16.768 22.272 21.53 5.222 2.867 22.477 3.021 320.41 3.021h314.88l6.835-3.686c8.090-4.378 17.997-14.438 22.426-22.758 3.021-5.734 3.174-15.386 3.61-232.013 0.41-205.645 0.205-226.816-2.33-234.47-2.765-8.32-5.376-11.341-27.699-32.051-7.091-6.579-8.781-9.344-10.368-17.050-4.557-22.17 11.213-41.37 34.099-41.523 7.885-0.051 11.136 0.947 19.251 5.837 26.47 16.051 45.696 41.907 55.194 74.266 2.765 9.498 3.021 26.189 3.533 229.53 0.333 134.042-0.077 225.613-1.101 235.52-3.226 31.565-12.902 51.968-35.174 74.24-21.837 21.837-42.547 31.846-72.55 35.072-17.587 1.894-606.643 1.741-623.77-0.154zM246.861 609.382c-11.418-3.072-21.222-13.030-24.243-24.653-0.713-2.625-1.122-5.639-1.122-8.748 0-16.585 11.648-30.45 27.21-33.859l0.229-0.042c12.672-2.714 513.459-2.714 526.131 0 15.791 3.441 27.441 17.3 27.441 33.881 0 3.182-0.429 6.264-1.233 9.191l0.057-0.243c-3.567 12.513-13.524 22.053-26.027 24.964l-0.239 0.047c-13.926 2.995-517.018 2.483-528.205-0.538zM246.861 481.382c-5.981-1.706-11.092-4.854-15.119-9.051l-0.011-0.012c-14.259-14.234-13.926-35.354 0.742-49.229 10.982-10.368 15.462-10.931 87.526-10.931s76.544 0.563 87.526 10.931c15.027 14.208 15.027 35.61 0 49.818-5.581 5.274-9.83 7.603-16.461 9.011-13.261 2.842-133.299 2.406-144.205-0.538zM622.771 481.971c-52.634-5.146-103.014-39.757-127.155-87.322-11.136-21.914-15.488-36.582-17.562-59.213-0.431-4.464-0.676-9.65-0.676-14.894 0-37.164 12.333-71.447 33.13-98.98l-0.3 0.415 8.627-11.392v-93.696c0-62.874 0.614-96.614 1.92-102.63 2.662-12.493 12.774-23.091 25.011-26.266 15.36-3.968 20.48-1.587 59.674 27.904l34.56 25.984 33.715-25.344c18.534-13.952 35.226-26.138 37.12-27.11 18.432-9.574 43.853 3.507 48.435 24.909 1.28 5.914 1.894 40.141 1.894 102.554v93.696l8.627 11.392c61.005 80.589 33.894 197.35-56.397 243.046-16.307 8.243-37.325 14.874-51.354 16.205-22.118 2.099-24.883 2.15-39.27 0.742zM664.678 409.549c15.027-3.917 28.749-12.006 40.806-24.064 18.458-18.458 26.675-38.63 26.675-65.485s-8.218-47.027-26.675-65.485c-18.458-18.458-38.63-26.675-65.485-26.675s-47.027 8.218-65.485 26.675c-18.458 18.458-26.675 38.63-26.675 65.485s8.218 47.027 26.675 65.485c11.776 11.776 25.728 20.122 40.064 23.987 12.288 3.302 37.581 3.328 50.099 0.077zM246.861 353.382c-5.981-1.706-11.092-4.854-15.119-9.051l-0.011-0.012c-14.259-14.234-13.926-35.354 0.742-49.229 10.394-9.83 17.126-10.931 66.202-10.931 49.050 0 55.782 1.101 66.176 10.931 15.053 14.208 15.053 35.61 0 49.818-5.581 5.274-9.805 7.603-16.461 9.011-12.826 2.765-90.803 2.33-101.53-0.538zM608.435 160.154c21.222-4.531 62.157-2.586 78.080 3.712 2.79 1.126 2.97-1.203 2.97-34.842 0-19.789-0.41-36.019-0.947-36.019-0.512 0-7.245 4.787-14.925 10.65-17.946 13.645-24.013 16.666-33.613 16.666s-15.667-3.021-33.613-16.666c-7.68-5.862-14.413-10.65-14.925-10.65-0.538 0-0.947 16.23-0.947 36.019 0 33.638 0.179 35.968 2.97 34.842 1.638-0.64 8.371-2.33 14.95-3.712z" />
<glyph unicode="&#xe907;" glyph-name="check" d="M848.213 702.72c-14.208-2.091-11.861 0.128-218.88-206.677l-202.667-202.453-96 95.787c-103.552 103.339-99.755 100.096-118.187 99.968-16.16-0.161-30.068-9.635-36.629-23.305l-0.107-0.247c-2.379-5.242-3.766-11.368-3.766-17.817 0-6.299 1.323-12.29 3.706-17.708l-0.111 0.282c2.475-5.12 37.504-41.173 116.651-120.149 121.301-121.088 116.736-117.077 134.443-117.077 18.091 0 4.949-12.203 241.109 223.701 156.459 156.331 220.8 221.653 223.317 226.859 4.267 8.747 4.736 24.149 1.024 33.024-7.040 16.853-26.581 28.373-43.904 25.813z" />
<glyph unicode="&#xe908;" glyph-name="checks" d="M709.961 693.65c-11.118-5.010-225.28-219.173-230.29-230.29-2.115-4.437-3.35-9.643-3.35-15.138 0-19.814 16.062-35.877 35.877-35.877 5.504 0 10.719 1.239 15.38 3.454l-0.217-0.093c5.888 2.633 33.097 28.855 116.517 112.165 116.334 116.224 117.285 117.285 117.285 133.595 0 25.893-27.173 42.971-51.2 32.183zM923.319 694.382c-3.474-1.646-91.355-88.101-208.64-205.239l-202.642-202.35-96.037 95.671c-63.854 63.671-98.231 96.695-102.619 98.706-4.791 2.194-9.545 2.853-17.079 2.377-11.81-0.397-22.064-6.711-27.93-16.058l-0.084-0.143c-5.925-8.631-7.205-24.43-2.816-34.048 3.365-7.424 212.882-218.917 226.048-228.206 6.985-4.937 8.85-5.413 20.517-5.413 12.142 0 13.312 0.366 21.358 6.29 4.645 3.474 104.558 102.546 222.025 220.16 235.447 235.813 220.635 219.575 218.587 239.616-1.097 10.533-5.669 17.92-16.018 25.783-7.863 5.998-25.198 7.424-34.67 2.853zM70.839 480.622c-12.605-5.748-21.208-18.24-21.208-32.741 0-5.534 1.253-10.776 3.491-15.457l-0.093 0.216c5.010-11.118 219.136-225.28 230.29-230.29 17.664-7.936 37.815-1.426 46.446 15.067 2.909 5.019 4.626 11.043 4.626 17.468 0 5.507-1.261 10.72-3.511 15.364l0.092-0.21c-5.010 11.118-217.125 223.488-229.339 229.595-4.754 2.563-10.405 4.070-16.408 4.070-5.211 0-10.157-1.135-14.604-3.172l0.219 0.090z" />
<glyph unicode="&#xe909;" glyph-name="chevron-down" d="M244.663 628.882c-10.925-2.399-20.299-7.941-27.397-15.618l-0.032-0.035c-9.108-8.827-14.761-21.173-14.761-34.839 0-0.841 0.021-1.677 0.064-2.508l-0.005 0.116c0-23.771-7.899-14.629 143.579-165.961 151.333-151.259 142.336-143.579 165.888-143.506 23.771 0 14.629-7.899 165.961 143.579 151.259 151.259 143.506 142.336 143.506 165.888 0.035 0.686 0.054 1.489 0.054 2.297 0 14.038-5.947 26.687-15.459 35.565l-0.028 0.026c-8.854 9.629-21.512 15.642-35.575 15.642-0.865 0-1.725-0.023-2.579-0.068l0.119 0.005c-23.333 0.073-16.896 5.413-142.921-120.539l-113.079-113.006-113.079 113.006c-88.722 88.722-114.688 113.737-120.759 116.37-6.893 2.794-14.888 4.415-23.261 4.415-3.615 0-7.16-0.302-10.611-0.883l0.373 0.052z" />
<glyph unicode="&#xe90a;" glyph-name="chevron-right" d="M394.24 690.227c-9.128-3.969-16.407-10.769-20.881-19.275l-0.111-0.232c-4.71-8.909-5.018-26.368-0.563-34.97 1.741-3.277 43.93-46.899 93.798-96.87l90.726-90.88-90.726-90.88c-49.869-49.971-91.955-93.44-93.491-96.512-9.574-19.149-1.229-43.315 18.534-53.709 5.296-2.399 11.483-3.797 17.997-3.797s12.701 1.398 18.278 3.911l-0.281-0.113c8.55 4.608 219.494 215.757 223.795 224.051 4.454 8.653 4.198 26.061-0.614 34.97-2.099 3.942-48.538 51.661-110.848 113.869-82.227 82.074-109.005 107.827-114.893 110.438-4.513 2.086-9.795 3.302-15.36 3.302s-10.847-1.216-15.592-3.398l0.232 0.096z" />
<glyph unicode="&#xe90b;" glyph-name="clock" d="M483.84 871.936c-3.738-0.358-14.131-1.485-23.040-2.509-76.083-8.704-157.696-43.571-217.6-92.928-19.302-15.872-50.022-46.95-64.307-64.922-46.182-58.214-78.029-134.502-88.627-212.378-2.867-20.89-2.867-81.51 0-102.4 10.65-78.285 41.984-153.088 88.934-212.48 15.36-19.456 45.773-50.074 65.69-66.202 59.55-47.882 133.121-80.707 213.655-91.603l2.256-0.25c8.909-1.229 31.949-2.253 51.2-2.253 50.637 0 86.784 5.786 133.99 21.402 92.697 31.644 168.925 91.382 220.508 168.925l0.983 1.571c32.973 49.818 57.549 116.787 66.253 180.89 2.867 20.89 2.867 81.51 0 102.4-10.65 78.285-41.984 153.088-88.934 212.48-15.36 19.456-45.773 50.074-65.69 66.202-57.972 46.715-129.371 79.083-207.549 90.643l-2.371 0.288c-16.845 2.406-72.038 4.454-85.35 3.123zM547.482 789.248c137.1-14.692 249.032-108.279 290.331-233.916l0.69-2.424c49.357-153.037-14.387-319.334-153.907-401.459-133.427-78.49-306.176-55.706-415.795 54.886-61.533 61.307-99.608 146.124-99.608 239.832 0 4.84 0.102 9.656 0.303 14.446l-0.023-0.685c2.437 74.122 28.052 141.82 69.782 196.573l-0.611-0.836c19.705 24.507 41.325 46.078 65.071 65.103l0.823 0.638c70.451 52.582 158.106 77.056 242.944 67.84zM501.76 700.774c-11.715-3.655-21.143-11.683-26.558-22.126l-0.117-0.248c-3.021-5.683-3.174-12.083-3.174-123.75 0-111.206 0.154-118.067 3.123-123.699 4.403-8.346 138.598-142.746 147.046-147.251 5.289-2.406 11.47-3.808 17.978-3.808 6.464 0 12.605 1.383 18.143 3.87l-0.28-0.113c8.148 4.45 14.636 11.053 18.824 19.051l0.12 0.251c4.25 8.038 4.25 26.010 0.051 34.099-1.741 3.328-30.31 33.28-63.488 66.56l-60.416 60.621-0.461 104.090c-0.512 114.842 0.102 108.595-11.315 120.883-9.062 9.83-28.006 15.36-39.475 11.571z" />
<glyph unicode="&#xe90c;" glyph-name="close" d="M243.115 734.933c-19.328-8.789-26.88-32.213-15.659-48.853 1.877-2.816 55.723-57.515 119.637-121.6l116.224-116.48-116.181-116.48c-63.915-64.043-118.059-119.168-120.32-122.453-3.285-4.821-4.096-8.107-4.053-17.067 0-9.344 0.811-12.245 4.864-18.304 5.675-8.363 19.029-15.829 28.288-15.787 14.379 0.085 16.085 1.621 138.752 124.16l117.333 117.248 118.187-117.973c102.187-101.973 119.296-118.357 126.293-120.917 3.445-1.34 7.433-2.117 11.602-2.117 12.972 0 24.188 7.518 29.529 18.435l0.086 0.194c2.271 4.348 3.832 9.423 4.38 14.798l0.015 0.178c-0.085 14.336-1.664 16.128-124.203 138.752l-117.205 117.333 117.248 117.333c122.496 122.581 124.117 124.459 124.117 138.667 0 16.981-17.365 34.219-34.432 34.091-13.824-0.085-16.299-2.304-138.283-124.16l-117.333-117.248-117.333 117.248c-122.539 122.411-124.459 124.117-138.667 124.117-4.722-0.306-9.108-1.423-13.129-3.211l0.244 0.097z" />
<glyph unicode="&#xe90d;" glyph-name="copy" d="M240.486 828.518c-17.794-2.383-33.872-7.943-48.276-16.114l0.66 0.344c-5.171-3.021-16.742-12.8-25.702-21.709-13.466-13.363-17.562-18.739-23.398-30.72-14.029-28.57-13.21-14.643-13.21-226.97s-0.819-198.451 13.21-227.021c5.837-11.93 9.933-17.306 23.398-30.72 31.027-30.822 54.733-39.168 111.206-39.219h21.504l1.024-32c1.178-37.018 3.328-47.923 13.517-68.71 5.888-11.981 9.984-17.357 23.398-30.72 24.678-24.525 44.288-34.202 76.442-37.632 11.008-1.178 77.517-1.587 195.021-1.178 192.512 0.666 183.040 0.205 206.49 9.677 21.709 8.806 47.155 30.925 60.16 52.326 8.499 13.926 14.643 33.28 16.64 52.224 2.202 21.094 2.202 343.501 0 364.595-1.956 19.445-7.89 37.151-16.975 52.799l0.335-0.626c-13.005 21.453-38.451 43.571-60.16 52.326-16.845 6.81-27.546 8.55-60.16 9.626l-32 1.075v19.763c-0.102 54.272-8.909 81.51-35.482 109.67-16.266 17.503-37.237 30.425-60.9 36.762l-0.898 0.205c-8.141 2.304-32.717 2.714-191.13 3.021-99.994 0.154-187.597-0.307-194.714-1.075zM615.27 745.165c10.24-4.659 17.152-11.264 22.016-21.043 4.198-8.397 4.403-10.189 4.403-36.659v-27.853h-106.24c-58.419-0.051-113.306-0.768-122.010-1.69-18.597-1.965-35.52-7.593-50.557-16.155l0.637 0.334c-5.171-3.021-16.742-12.8-25.702-21.709-13.414-13.414-17.51-18.79-23.398-30.72-13.261-27.085-12.851-22.374-13.619-154.061l-0.614-117.299h-27.648c-25.498 0-28.314 0.307-36.147 4.045-9.622 4.24-17.111 11.846-21.098 21.291l-0.099 0.264c-3.43 7.578-3.482 10.189-3.482 189.44 0 179.2 0.051 181.862 3.482 189.44 4.087 9.695 11.577 17.285 20.939 21.403l0.257 0.101 8.499 4.045h181.76c172.237-0.051 182.118-0.205 188.621-3.174zM785.92 574.515c10.291-4.659 17.152-11.264 22.067-21.094l4.403-8.806-0.051-181.862c-0.051-172.288-0.205-182.221-3.174-188.672-4.196-9.736-11.569-17.44-20.789-21.955l-0.255-0.113-8.858-4.403-363.674 0.051-8.55 4.045c-9.607 4.237-17.091 11.821-21.097 21.24l-0.1 0.264c-3.43 7.578-3.482 10.24-3.482 189.44 0 179.251 0.051 181.862 3.482 189.44 4.104 9.698 11.587 17.297 20.939 21.453l0.258 0.102 8.55 4.045 181.76-0.051c172.237 0 182.118-0.154 188.57-3.123z" />
<glyph unicode="&#xe90e;" glyph-name="diamond" d="M241.485 781.005c-4.46-2.202-8.296-4.868-11.677-8.014l0.029 0.027c-4.992-5.069-132.531-216.32-136.909-226.816-3.354-8.013-3.046-19.098 0.717-27.366 2.918-6.477 363.162-410.982 374.605-420.659 11.712-10.005 27.033-16.094 43.776-16.094s32.064 6.088 43.869 16.171l-0.093-0.078c11.648 9.958 371.661 414.259 374.554 420.659 3.763 8.269 4.070 19.354 0.717 27.366-4.378 10.496-131.917 221.747-136.909 226.816-3.352 3.12-7.188 5.785-11.368 7.861l-0.28 0.126c-6.528 2.995-18.355 3.123-270.515 3.123s-263.987-0.128-270.515-3.123zM797.875 623.77c28.16-46.925 51.046-85.76 50.893-86.298-0.486-1.587-335.846-376.166-336.768-376.166-1.357 0-335.898 374.4-336.23 376.294-0.179 0.947 22.605 39.91 50.611 86.605l50.944 84.915h469.35l51.2-85.35zM352.435 618.854c-4.27-2.038-7.95-4.457-11.253-7.3l0.065 0.055c-4.659-4.378-30.797-46.848-34.944-56.781-3.379-8.090-3.123-19.174 0.666-27.494 1.715-3.763 19.456-24.883 39.424-46.925 49.306-54.451 57.83-63.104 65.766-66.739 29.517-13.542 62.31 19.251 48.87 48.87-1.715 3.763-18.586 23.885-37.504 44.698s-34.406 38.554-34.406 39.424c0 0.87 3.149 6.989 6.963 13.619 10.675 18.432 11.059 30.72 1.459 45.235-9.677 14.592-29.594 20.506-45.107 13.338z" />
<glyph unicode="&#xe90f;" glyph-name="download" d="M502.898 833.365c-18.261-3.356-31.573-17.124-35.157-36.409-1.252-6.77-1.82-74.354-1.82-209.749v-199.794l-70.428 70.258c-38.684 38.628-72.875 71.452-75.947 72.988-6.211 3.004-13.508 4.759-21.214 4.759-2.977 0-5.892-0.262-8.724-0.764l0.299 0.044c-29.753-5.404-44.999-38.172-30.663-65.764 1.877-3.641 51.655-54.67 114.802-117.703 121.742-121.515 118.329-118.613 137.956-118.613s16.156-3.015 138.638 119.41c122.652 122.539 119.41 118.841 119.41 138.695-0.125 12.004-4.631 22.933-11.992 31.285l0.045-0.053c-13.767 14.507-39.993 17.806-56.434 7.168-3.413-2.219-36.921-34.816-74.468-72.476l-68.267-68.38-0.853 205.198-0.853 205.255-4.039 8.932c-7.323 15.826-23.065 26.607-41.326 26.607-3.172 0-6.269-0.325-9.258-0.945l0.294 0.051zM161.564 278.699c-18.261-3.356-31.573-17.124-35.157-36.409-2.219-12.174-2.332-82.546-0.114-105.244 2.105-21.447 8.761-41.301 19.228-57.401 21.282-33.45 56.728-56.257 97.687-59.981l0.503-0.037c21.902-2.162 514.674-2.162 536.576 0 41.462 3.76 76.909 26.568 97.878 59.494l0.312 0.524c17.465 26.795 21.618 51.598 20.651 122.197-0.569 39.652-0.853 42.724-4.551 50.745-6.96 16.036-22.657 27.048-40.927 27.048-3.215 0-6.35-0.341-9.371-0.989l0.292 0.052c-18.716-3.413-31.858-16.896-35.499-36.409-1.024-5.518-1.82-30.322-1.82-55.751 0-50.574-0.455-53.476-10.752-64.284-3.516-3.512-7.566-6.49-12.017-8.803l-0.271-0.128c-6.542-3.015-17.294-3.186-271.815-3.186-292.636-0.057-271.36-0.853-283.42 10.695-11.378 10.923-11.264 10.297-12.288 69.461-0.853 51.712-1.024 54.101-4.892 62.692-7.307 15.822-23.038 26.605-41.288 26.605-3.166 0-6.255-0.324-9.238-0.942l0.294 0.051z" />
<glyph unicode="&#xe910;" glyph-name="external-link" d="M632.013 828.57c-15.612-3.722-27.635-15.899-31.078-31.314l-0.052-0.276c-4.096-22.016 10.24-42.701 32.563-46.95 4.813-0.922 34.15-1.638 65.229-1.638h56.474l-181.043-181.35c-123.75-123.904-182.016-183.398-184.064-187.904-3.891-8.704-3.891-24.422 0.102-32.768 3.891-8.192 12.032-16.333 20.224-20.224 4.885-1.9 10.54-3.001 16.452-3.001 5.861 0 11.469 1.082 16.635 3.057l-0.319-0.107c4.454 1.997 64.154 60.467 187.802 183.91l181.197 180.89 0.563-62.106c0.512-57.446 0.768-62.669 3.84-68.813 7.424-15.002 20.838-23.552 36.813-23.552 16.226 0.051 30.212 9.589 36.708 23.355l0.105 0.248c3.123 6.298 3.277 11.674 3.277 122.624 0 111.36-0.154 116.326-3.328 122.726-4.683 8.937-11.799 16.053-20.471 20.609l-0.265 0.127c-6.349 3.174-11.622 3.328-118.426 3.584-61.491 0.154-114.995-0.358-118.938-1.126zM240.486 700.518c-17.794-2.383-33.872-7.943-48.276-16.114l0.66 0.344c-12.083-7.066-38.554-33.536-45.619-45.619-8.258-14.394-13.891-31.323-15.774-49.368l-0.047-0.552c-2.202-20.941-2.202-389.478 0-410.419 3.226-30.874 13.261-51.251 36.71-74.65 23.398-23.45 43.776-33.485 74.65-36.71 20.941-2.202 389.478-2.202 410.419 0 30.874 3.226 51.251 13.261 74.65 36.71 16.998 16.947 24.218 27.904 30.771 46.592 6.963 20.019 7.885 38.502 7.322 155.597-0.512 103.219-0.666 108.698-3.84 115.046-6.484 14.009-20.42 23.552-36.586 23.552-0.062 0-0.124 0-0.185 0h0.010c-0.058 0-0.126 0-0.194 0-16.175 0-30.12-9.542-36.515-23.304l-0.104-0.248c-3.174-6.349-3.328-12.339-4.147-125.286l-0.87-118.579-4.71-8.090c-2.886-4.732-6.317-8.782-10.281-12.235l-0.062-0.053c-13.21-10.086 0.102-9.523-220.826-9.472-192.512 0.051-203.059 0.205-209.562 3.174-9.736 4.196-17.44 11.569-21.955 20.789l-0.113 0.255-4.403 8.858v202.803c0 221.030-0.563 207.718 9.523 220.928 2.355 3.072 7.885 7.731 12.288 10.342l8.090 4.71 118.579 0.87c131.994 0.922 124.109 0.205 137.011 12.698 7.295 6.722 11.849 16.323 11.849 26.988 0 0.448-0.008 0.894-0.024 1.338l0.002-0.064c0 0.052 0 0.114 0 0.176 0 16.166-9.544 30.102-23.304 36.482l-0.248 0.103c-6.349 3.174-11.571 3.328-119.296 3.584-61.952 0.102-118.477-0.41-125.594-1.178z" />
<glyph unicode="&#xe911;" glyph-name="eye" d="M464.23 781.67c-148.122-16.282-271.36-100.915-376.576-258.56-19.251-28.877-36.147-58.266-38.451-67.021-3.072-11.725-0.358-19.866 15.974-47.206 51.814-86.733 113.92-158.515 179.712-207.667 73.671-55.851 166.879-89.466 267.938-89.466 29.275 0 57.892 2.821 85.593 8.206l-2.811-0.455c140.902 26.573 263.578 123.853 361.984 287.027 16.128 26.675 18.637 32.256 18.637 41.472 0 8.96-2.56 14.848-16.486 38.093-84.122 140.237-185.139 232.141-300.134 273.050-44.248 15.816-95.294 24.957-148.475 24.957-16.521 0-32.835-0.882-48.9-2.602l1.996 0.173zM565.862 704.819c51.633-7.918 97.95-25.392 138.975-50.634l-1.606 0.919c49.459-29.389 108.646-86.477 151.91-146.534 15.565-21.504 39.168-58.061 39.168-60.57s-23.552-38.861-39.27-60.621c-43.674-60.518-100.25-115.251-150.682-145.664-68.25-41.216-143.718-59.443-220.518-53.248-74.752 6.042-141.363 32.461-203.93 80.947-24.576 19.046-67.379 62.054-89.446 89.856-17.51 22.067-46.49 63.539-56.371 80.64l-4.71 8.090 4.71 8.090c9.882 17.152 38.861 58.573 55.808 79.821 82.944 104.038 178.381 160.819 288.051 171.418 9.077 0.614 19.675 0.963 30.355 0.963 20.285 0 40.276-1.262 59.898-3.711l-2.343 0.238zM485.53 568.166c-10.811-2.846-20.174-6.397-29.046-10.791l0.886 0.397c-13.722-6.707-18.534-10.291-31.642-23.45-14.894-14.2-26.156-32.079-32.336-52.183l-0.227-0.86c-4.403-14.438-4.403-52.122 0-66.56 6.144-20.326 16.026-36.454 32.563-53.043 13.107-13.158 17.92-16.691 31.642-23.45 35.942-17.51 72.858-17.51 109.21 0 13.773 6.656 18.381 10.086 31.642 23.398 13.056 13.107 16.742 18.125 23.45 31.744 8.346 15.871 13.244 34.679 13.244 54.63s-4.898 38.759-13.557 55.286l0.313-0.656c-6.707 13.619-10.394 18.637-23.45 31.744-13.261 13.312-17.869 16.742-31.642 23.398-16.205 8.206-35.329 13.013-55.576 13.013-9.019 0-17.816-0.954-26.295-2.766l0.821 0.147zM533.504 490.394c9.362-4.857 16.753-12.413 21.276-21.631l0.125-0.283c3.123-6.042 3.994-10.445 3.994-20.48s-0.87-14.438-3.994-20.48c-9.165-17.818-22.938-26.266-42.906-26.368-10.342-0.051-14.387 0.717-21.146 4.147-15.565 8.292-26.1 24.208-26.622 42.631l-0.002 0.070c0 20.838 15.514 41.062 35.43 46.029 9.267 2.355 25.344 0.614 33.843-3.635z" />
<glyph unicode="&#xe912;" glyph-name="info-circle" d="M199.49 760.51c75.279 75.278 177.379 117.57 283.838 117.57s208.56-42.291 283.836-117.57c75.28-75.279 117.572-177.379 117.572-283.838 0-52.716-10.383-104.911-30.556-153.612s-49.738-92.951-87.015-130.224c-37.274-37.278-81.523-66.843-130.224-87.015s-100.897-30.556-153.612-30.556c-52.716 0-104.911 10.383-153.612 30.556s-92.952 49.738-130.226 87.015c-37.274 37.274-66.841 81.523-87.014 130.224s-30.555 100.897-30.555 153.612c0 106.46 42.291 208.56 117.57 283.838zM483.328 812.544c-89.079 0-174.509-35.387-237.498-98.374s-98.374-148.419-98.374-237.498c0-44.106 8.688-87.781 25.567-128.532s41.619-77.775 72.808-108.966c31.189-31.187 68.215-55.927 108.965-72.806s84.427-25.567 128.532-25.567c44.106 0 87.781 8.688 128.532 25.567s77.775 41.619 108.966 72.806c31.187 31.191 55.927 68.215 72.806 108.966s25.567 84.427 25.567 128.532c0 89.079-35.385 174.509-98.374 237.498s-148.419 98.374-237.498 98.374zM450.56 599.552c0 18.097 14.672 32.768 32.768 32.768h0.41c18.096 0 32.768-14.671 32.768-32.768s-14.672-32.768-32.768-32.768h-0.41c-18.096 0-32.768 14.671-32.768 32.768zM409.6 476.672c0 18.096 14.672 32.768 32.768 32.768h40.96c18.096 0 32.768-14.672 32.768-32.768v-131.072h8.192c18.096 0 32.768-14.672 32.768-32.768s-14.672-32.768-32.768-32.768h-40.96c-18.096 0-32.768 14.672-32.768 32.768v131.072h-8.192c-18.096 0-32.768 14.672-32.768 32.768z" />
<glyph unicode="&#xe913;" glyph-name="file" d="M435.2 867.84l-161.28-0.841-11.959-3.986c-20.187-6.766-32.841-14.848-49.518-31.707-17.518-17.701-25.893-32.183-31.561-54.601-3.328-13.275-3.401-19.566-3.401-328.704s0.073-315.429 3.401-328.704c5.778-22.857 13.97-36.864 32.439-55.296 18.505-18.542 32.549-26.734 55.552-32.475 13.495-3.365 18.286-3.438 247.479-2.962l233.728 0.439 14.263 4.974c40.265 14.080 71.058 48.713 79.726 89.71 1.938 9.179 2.377 54.674 2.414 257.317 0.073 218.807-0.219 246.93-2.597 252.599-1.829 4.498-35.511 39.314-112.238 116.151-60.27 60.343-111.982 111.214-114.907 113.079-3.694 2.092-7.985 3.692-12.534 4.566l-0.266 0.042c-4.096 0.695-80.018 0.878-168.741 0.402zM561.518 718.519c0.768-68.096 1.207-77.678 3.877-84.407 8.802-21.74 25.721-38.647 46.902-47.23l0.568-0.203c6.619-2.597 16.603-3.072 84.297-3.84l76.8-0.878v-443.721l-3.584-7.753c-4.968-11.016-13.43-19.726-23.949-24.883l-0.297-0.132-9.691-4.791h-448.878l-9.691 4.791c-10.817 5.289-19.279 13.999-24.118 24.697l-0.129 0.318-3.584 7.753v619.52l3.547 7.68c7.131 15.323 19.968 25.893 35.109 28.891 4.059 0.805 66.926 1.353 139.666 1.207l132.279-0.219 0.878-76.8zM680.923 654.921c-26.368-0.329-42.24 0.183-44.398 1.317-3.182 1.719-3.365 3.767-3.365 44.837v43.008l88.795-88.722-41.033-0.439zM368.896 694.345c-14.19-7.131-21.431-19.675-20.443-35.365 0.805-12.178 5.851-20.955 16.201-28.087l6.546-4.535h68.279l6.546 4.535c3.621 2.487 8.594 7.461 11.081 11.081 3.913 5.669 4.535 8.302 4.535 19.346 0 11.081-0.585 13.678-4.535 19.383-3.162 4.263-6.818 7.92-10.941 10.982l-0.14 0.099c-6.473 4.462-7.022 4.535-38.985 4.974-27.538 0.366-33.28 0-38.144-2.414zM368.896 438.309c-12.254-5.657-20.604-17.84-20.604-31.972 0-1.182 0.058-2.35 0.172-3.501l-0.012 0.146c0.805-12.178 5.851-20.955 16.201-28.087l6.546-4.535h281.6l6.071 4.096c3.328 2.267 8.302 7.241 11.081 11.081 4.498 6.254 5.047 8.338 5.047 19.785 0 11.081-0.622 13.714-4.535 19.383-3.174 4.263-6.841 7.919-10.976 10.981l-0.142 0.1-6.546 4.535-139.081 0.402c-126.574 0.366-139.63 0.146-144.823-2.414zM539.575 267.666c-14.19-7.095-21.467-19.675-20.443-35.365 0.397-11.823 6.693-22.093 16.024-28.003l0.141-0.083 6.583-4.535h110.921l6.546 4.535c3.621 2.487 8.631 7.497 11.118 11.081 3.913 5.669 4.535 8.302 4.535 19.383 0 11.045-0.622 13.678-4.535 19.346-3.164 4.271-6.833 7.929-10.976 10.981l-0.142 0.1-6.546 4.535-53.76 0.439c-47.323 0.366-54.455 0.073-59.465-2.414z" />
<glyph unicode="&#xe914;" glyph-name="home" d="M502.613 864.981c-3.911-1.645-7.281-3.576-10.377-5.856l0.137 0.096c-3.755-2.603-93.696-91.819-199.893-198.187-168.832-169.088-193.451-194.432-196.096-201.515-1.37-3.47-2.164-7.49-2.164-11.695 0-13.060 7.66-24.331 18.733-29.565l0.199-0.085c8.277-4.096 10.112-4.309 37.291-4.309h28.629l0.469-143.787 0.512-143.787 4.693-13.867c8.533-25.173 28.459-50.091 52.139-65.237 11.605-7.381 25.856-12.672 42.027-15.531 6.741-1.195 84.821-1.792 233.088-1.792s226.347 0.597 233.088 1.792c24.756 4.023 46.312 15.528 62.802 32.082l0.004 0.004c18.944 18.261 30.507 39.979 35.115 65.835 1.152 6.528 1.792 58.965 1.792 147.2v137.088h28.8c28.245 0 29.013 0.085 37.931 4.736 6.311 2.792 11.239 7.748 13.927 13.907l0.067 0.173c4.181 7.936 4.779 10.709 4.053 18.304-0.543 5.413-2.218 10.337-4.784 14.672l0.091-0.165c-5.504 8.107-385.109 388.011-393.771 394.069-7.381 5.163-20.523 7.637-28.501 5.419zM662.784 632.576l149.931-149.931-7.168-1.152c-9.919-2.022-18.224-7.775-23.553-15.697l-0.084-0.133-4.523-6.571-1.707-322.56-4.779-9.771c-5.803-11.668-15.638-20.602-27.641-25.101l-0.349-0.115c-7.893-2.944-13.312-3.413-38.997-3.413h-29.781v115.755c0 118.699-0.341 125.995-7.040 146.56-9.6 29.568-42.368 62.379-71.893 71.979-18.859 6.101-29.824 7.040-83.2 7.040s-64.341-0.939-83.2-7.040c-29.525-9.6-62.293-42.411-71.893-71.979-6.699-20.565-7.040-27.861-7.040-146.56v-115.755h-29.781c-25.685 0-31.104 0.469-38.997 3.413-12.351 4.613-22.186 13.548-27.857 24.923l-0.132 0.293-4.779 9.771-1.707 322.56-4.523 6.571c-5.413 8.055-13.719 13.808-23.398 15.788l-0.239 0.041-7.168 1.152 149.931 149.931c49.686 49.955 98.815 98.815 148.21 147.405l2.574 2.525c0.469 0 68.309-67.456 150.784-149.931zM572.843 367.531c13.013-4.864 24.491-16.341 29.355-29.355 3.627-9.643 3.669-11.392 3.669-124.928v-115.115h-187.733v115.115c0 113.536 0.043 115.285 3.669 124.928 4.736 12.715 16.341 24.491 28.885 29.269 8.619 3.328 12.757 3.584 60.8 3.669 48.683 0.085 52.139-0.128 61.355-3.584z" />
<glyph unicode="&#xe915;" glyph-name="player-play" d="M298.666 789.332v-682.666l554.666 341.334-554.666 341.332z" />
<glyph unicode="&#xe917;" glyph-name="mail" d="M182.955 773.931c-39.808-10.453-74.283-46.037-83.029-85.717-2.475-11.051-2.688-36.949-2.261-245.333l0.469-232.96 3.797-11.093c5.803-16.981 15.403-31.957 29.483-46.080 14.592-14.549 29.611-24.021 46.933-29.483l11.947-3.797h643.413l11.947 3.797c17.323 5.461 32.341 14.933 46.933 29.483 14.549 14.592 24.021 29.611 29.483 46.933l3.797 11.947v472.747l-3.797 11.947c-5.461 17.323-14.933 32.341-29.483 46.933-12.546 12.95-27.972 23.033-45.251 29.224l-0.829 0.259-11.093 3.797-320 0.341c-310.613 0.341-320.384 0.256-332.459-2.944zM820.096 714.069c5.547-1.024 12.8-3.243 16.128-4.949 10.667-5.547 25.771-23.808 25.6-31.061-0.043-1.237-78.763-54.656-174.933-118.699l-174.891-116.48-174.891 116.48c-96.171 64.043-174.891 117.461-174.933 118.699-0.128 6.869 14.677 25.259 24.704 30.677 12.843 6.912 12.459 6.912 323.541 7.083 209.707 0.085 302.635-0.427 309.675-1.749zM327.253 490.965c90.069-60.075 166.912-110.805 170.795-112.768 4.047-2.158 8.852-3.426 13.952-3.426s9.905 1.268 14.115 3.505l-0.163-0.079c3.883 1.963 80.725 52.693 170.795 112.768-10.969-4.928 43.182 31.355 97.533 67.359l68.611 42.721c2.048 0.768 2.389-26.069 2.389-182.4 0-185.771-0.341-196.779-6.315-208.683-5.8-9.417-13.433-17.158-22.455-22.912l-0.286-0.17c-4.635-2.101-10.041-3.816-15.677-4.879l-0.451-0.071c-14.165-2.645-602.027-2.645-616.192 0-6.087 1.133-11.493 2.848-16.587 5.133l0.459-0.184c-9.309 5.924-16.941 13.666-22.566 22.778l-0.175 0.305c-5.973 11.904-6.315 22.912-6.315 208.683 0 156.331 0.341 183.168 2.389 182.4 1.323-0.512 76.075-50.048 166.144-110.080z" />
<glyph unicode="&#xe918;" glyph-name="map-pin" d="M485.888 862.549c-80.171-5.205-156.032-36.693-219.008-90.923-37.803-32.512-64.725-67.413-87.765-113.707-43.733-87.765-51.883-179.499-24.405-273.92 15.103-50.255 38.909-93.821 69.948-131.162l-0.487 0.602c13.696-16.597 187.477-191.915 209.109-210.987 24.96-21.973 47.317-30.379 80.427-30.165 16.213 0.085 21.973 0.896 33.28 4.523 27.605 8.96 27.307 8.661 138.368 119.68 56.405 56.32 107.947 108.971 114.475 116.949 71.851 87.467 100.736 204.373 77.355 313.173-17.365 80.939-59.52 152.917-120.064 205.013-60.715 52.267-138.411 85.461-210.987 90.112-33.109 2.133-38.869 2.219-60.245 0.811zM571.733 794.539c70.997-14.592 137.643-54.912 181.504-109.739 34.268-43.171 57.835-96.302 65.858-154.396l0.19-1.678c3.371-25.6 1.365-73.387-4.267-100.096-10.304-50.992-32.239-95.709-62.957-132.903l0.408 0.509c-7.253-9.003-57.259-60.288-111.061-113.963-109.909-109.653-105.813-106.283-129.408-106.283-23.552 0-19.669-3.2-127.744 104.576-52.907 52.736-102.016 102.827-109.099 111.275-33.835 40.149-54.827 83.541-66.304 136.789-4.395 20.352-4.736 24.789-4.821 62.037-0.085 35.755 0.341 42.155 3.925 58.88 13.739 64.512 45.099 122.069 89.6 164.139 41.491 39.755 94.095 68.225 152.69 80.292l2.019 0.348c25.003 4.821 27.264 4.949 66.56 4.395 27.691-0.384 38.699-1.28 52.907-4.181zM494.080 649.216c-38.955-4.053-79.36-25.856-104.576-56.363-56.619-68.565-46.549-170.88 22.229-226.219 67.499-54.315 168.021-44.416 222.763 21.845 71.979 87.211 33.536 219.221-74.027 253.995-12.501 4.053-46.165 9.515-51.627 8.405-0.597-0.128-7.253-0.896-14.763-1.664zM536.405 583.68c16.427-4.267 30.123-12.331 43.179-25.429 19.456-19.413 27.989-40.064 27.989-67.584 0-27.477-8.491-47.829-28.117-67.456s-39.979-28.117-67.456-28.117c-27.52 0-48.171 8.533-67.584 27.989-19.456 19.413-27.989 40.064-27.989 67.584s8.533 48.171 27.989 67.584c12.8 12.843 26.667 21.12 42.453 25.344 11.861 3.2 37.419 3.243 49.536 0.085z" />
<glyph unicode="&#xe919;" glyph-name="menu" d="M156.014 737.426c-7.314-3.182-17.225-13.824-19.602-20.992-5.157-15.616 1.134-33.829 14.885-43.154l6.327-4.279h708.754l6.327 4.279c3.438 2.341 8.375 7.278 10.935 10.935 4.096 5.888 4.681 8.302 4.681 19.785s-0.585 13.897-4.681 19.785c-2.56 3.657-7.497 8.594-10.935 10.935l-6.327 4.279-352.549 0.366c-292.681 0.293-353.426-0.037-357.815-1.938zM156.014 481.426c-7.314-3.182-17.225-13.824-19.602-20.992-5.157-15.616 1.134-33.829 14.885-43.154l6.327-4.279h708.754l6.327 4.279c3.438 2.341 8.375 7.278 10.935 10.935 4.096 5.888 4.681 8.302 4.681 19.785s-0.585 13.897-4.681 19.785c-2.56 3.657-7.497 8.594-10.935 10.935l-6.327 4.279-352.549 0.366c-292.681 0.293-353.426-0.037-357.815-1.938zM156.014 225.426c-7.314-3.182-17.225-13.824-19.602-20.992-5.157-15.616 1.134-33.829 14.885-43.154l6.327-4.279h708.754l6.327 4.279c3.438 2.341 8.375 7.278 10.935 10.935 4.096 5.888 4.681 8.302 4.681 19.785s-0.585 13.897-4.681 19.785c-2.56 3.657-7.497 8.594-10.935 10.935l-6.327 4.279-352.549 0.366c-292.681 0.293-353.426-0.037-357.815-1.938z" />
<glyph unicode="&#xe91a;" glyph-name="phone" d="M192.154 828.518c-45.261-7.731-83.866-41.216-98.97-85.862-7.424-21.965-7.219-46.387 0.819-102.656 18.197-118.628 62.402-224.403 126.661-314.947l-1.528 2.268c33.997-47.718 90.88-108.442 134.144-143.206 108.49-88.644 245.104-146.716 394.661-159.308l2.651-0.18c32.666-2.867 50.176 0.154 75.418 13.005 24.464 12.822 43.683 32.834 55.181 57.204l0.32 0.754c12.237 25.754 11.93 22.528 11.93 134.81 0 100.352 0 100.71-3.738 107.674-7.424 13.875-9.216 14.746-127.846 62.31-104.448 41.83-113.203 45.056-122.726 44.954-20.48-0.154-25.958-5.427-53.248-51.098-11.827-19.712-22.426-36.864-23.603-38.144-1.741-1.946-4.403-0.768-15.514 6.707-47.605 32.478-87.484 72.356-118.97 118.425l-0.992 1.537c-7.475 11.11-8.653 13.773-6.707 15.514 1.28 1.178 18.432 11.776 38.144 23.603 45.67 27.29 50.944 32.768 51.098 53.248 0.102 9.523-3.123 18.278-44.954 122.726-47.565 118.63-48.435 120.422-62.31 127.846-6.912 3.686-7.629 3.738-104.243 3.994-53.504 0.154-101.069-0.41-105.677-1.178zM387.686 670.874c24.934-62.362 30.259-77.005 28.416-78.694-8.704-5.859-21.32-13.732-34.124-21.322l-4.532-2.486c-16.935-9.811-30.672-18.645-44.011-28.006l1.924 1.28c-7.89-7.309-12.812-17.724-12.812-29.289 0-0.341 0.004-0.681 0.013-1.020l-0.001 0.050c0-8.755 1.126-12.237 9.114-27.75 49.127-92.486 122.846-166.303 212.495-214.21l2.749-1.342c16.282-8.346 19.712-9.523 28.518-9.523 0.254-0.006 0.554-0.009 0.854-0.009 11.585 0 22.020 4.92 29.331 12.784l0.023 0.025c2.714 3.123 14.746 22.016 26.726 42.086 11.981 20.019 22.682 37.427 23.808 38.656 1.69 1.843 16.333-3.482 78.694-28.416l76.646-30.669 0.461-75.674c0.41-67.482 0.154-76.493-2.406-83.251-4.949-11.44-13.701-20.458-24.631-25.624l-0.304-0.129c-7.987-3.43-10.65-3.686-25.139-2.714-134.861 9.216-269.773 66.458-375.552 159.334-120.934 106.189-199.885 262.093-213.555 421.837-1.894 21.709-1.792 24.32 1.075 31.795 4.635 11.351 13.063 20.359 23.677 25.626l0.285 0.128 8.499 3.994 153.088-0.819 30.669-76.646z" />
<glyph unicode="&#xe91b;" glyph-name="printer" d="M368.486 871.117c-17.786-2.307-33.873-7.839-48.268-16.007l0.652 0.34c-12.083-7.117-38.554-33.587-45.619-45.67-7.987-13.619-13.824-31.693-15.77-48.896-0.973-8.294-1.741-44.083-1.741-79.514l-0.051-64.41-20.89-0.051c-57.293-0.051-81.357-8.346-111.36-38.349-23.398-23.45-33.434-43.827-36.659-74.701-2.202-20.48-2.202-176.589 0-197.069 3.226-30.874 13.261-51.251 36.659-74.65 30.003-30.054 54.067-38.349 111.36-38.4l20.89-0.051 0.051-21.76c0-56.32 8.448-80.538 38.4-110.49 23.398-23.398 43.776-33.434 74.65-36.659 20.582-2.202 261.837-2.202 282.419 0 30.874 3.226 51.251 13.261 74.65 36.659 30.054 30.003 38.349 54.067 38.4 111.36l0.051 20.89 20.89 0.051c57.293 0.051 81.357 8.346 111.36 38.4 23.398 23.398 33.434 43.776 36.659 74.65 2.202 20.48 2.202 176.589 0 197.069-3.226 30.874-13.261 51.251-36.659 74.701-29.952 29.901-54.17 38.349-110.49 38.4h-21.76l-0.051 63.59c-0.051 70.81-1.331 89.395-7.68 107.469-6.502 18.586-13.722 29.542-30.72 46.541-23.398 23.398-43.776 33.434-74.65 36.659-18.842 1.997-265.933 1.894-284.723-0.102zM660.122 786.637c9.483-4.615 16.86-12.323 20.936-21.788l0.107-0.279c2.867-6.246 3.123-12.749 3.174-77.21l0.051-70.4h-344.781l0.051 70.4c0.051 64.461 0.307 70.963 3.174 77.21 4.184 9.744 11.561 17.452 20.789 21.955l0.255 0.112 8.858 4.403h278.528l8.858-4.403zM830.771 530.637c9.83-4.864 16.384-11.776 21.094-22.067 2.867-6.349 3.123-13.568 3.123-103.219 0-89.702-0.256-96.922-3.123-103.27-4.216-9.738-11.605-17.442-20.839-21.954l-0.256-0.113c-8.397-4.198-10.189-4.403-36.659-4.403h-27.802l-0.051 20.941c-0.051 57.293-8.346 81.306-38.4 111.309-23.142 23.194-43.264 33.178-73.677 36.659-19.968 2.304-264.397 2.304-284.365 0-30.413-3.482-50.534-13.466-73.677-36.659-29.952-29.901-38.4-54.17-38.4-110.49l-0.051-21.76h-27.802c-26.47 0-28.262 0.205-36.659 4.403-9.489 4.625-16.878 12.329-20.986 21.788l-0.108 0.28c-2.867 6.349-3.123 13.568-3.123 103.27 0 89.651 0.256 96.87 3.123 103.219 4.2 9.749 11.594 17.458 20.839 21.955l0.256 0.112 8.806 4.403h619.93l8.806-4.403zM660.122 359.987c9.779-4.915 16.384-11.776 21.043-22.067 2.918-6.349 3.123-13.568 3.123-103.27 0-89.651-0.205-96.87-3.123-103.219-4.184-9.744-11.561-17.452-20.789-21.955l-0.255-0.112-8.858-4.403h-278.528l-8.858 4.403c-9.483 4.615-16.86 12.323-20.936 21.788l-0.107 0.279c-2.918 6.349-3.123 13.568-3.123 103.219 0 89.702 0.205 96.922 3.123 103.27 4.196 9.736 11.569 17.44 20.789 21.955l0.255 0.113 8.858 4.403h278.528l8.858-4.403z" />
<glyph unicode="&#xe91c;" glyph-name="rocket" d="M702.259 822.579c-97.178-10.701-184.678-52.966-254.285-122.778-30.87-31.136-56.806-67.23-76.495-106.968l-1.073-2.395-11.699-23.962-14.771-2.125c-46.234-6.682-99.917-31.949-141.568-66.611-25.062-20.864-59.725-65.306-65.28-83.661-3.302-10.931-0.486-22.272 7.782-31.437 7.629-8.474 12.39-10.496 32.742-14.003 16.794-2.867 39.219-8.218 46.95-11.136l4.506-1.715-16.179-16.845c-53.043-55.27-83.046-135.731-79.078-212.096 1.459-28.006 4.019-36.557 13.517-45.312 10.726-9.907 19.174-11.546 58.317-11.418 28.314 0.077 35.174 0.666 53.939 4.634 26.646 5.402 50.283 13.756 72.262 24.906l-1.606-0.739c30.874 15.002 51.763 29.67 76.288 53.581l13.158 12.826 1.766-4.634c2.97-7.808 8.294-30.157 11.136-46.822 3.405-19.814 4.89-23.731 11.674-30.822 9.984-10.419 21.248-13.722 33.92-9.907 18.176 5.478 62.157 39.859 83.507 65.306 34.432 41.011 59.981 95.206 66.662 141.491l2.125 14.771 23.962 11.699c83.763 40.909 149.99 107.622 192.23 193.638 20.495 40.401 34.632 87.476 39.669 137.24l0.139 1.691c2.79 26.778 1.126 48.717-5.197 68.813-16.87 53.478-55.91 92.595-109.158 109.389-12.39 3.891-18.176 4.864-42.522 7.040-3.763 0.333-16.051-0.41-27.341-1.638zM750.003 750.874c31.565-8.218 59.29-37.094 65.894-68.608 5.018-24.064-2.611-75.827-17.331-117.555-33.408-94.592-107.622-170.496-203.443-208.077-25.242-9.882-33.638-21.12-33.638-45.030 0-21.069-12.058-63.155-24.704-86.323-13.107-23.936-40.602-59.341-43.52-56.013-0.666 0.768-4.045 9.728-7.526 19.891-18.074 53.146-48.461 101.478-89.779 142.797s-89.651 71.706-142.797 89.779c-10.163 3.482-19.123 6.861-19.891 7.526-3.328 2.918 32.077 30.413 56.013 43.52 23.168 12.646 65.254 24.704 86.323 24.704 23.91 0 35.149 8.397 45.030 33.638 30.874 78.72 84.326 139.853 158.259 180.966 54.963 30.566 133.965 48.461 171.11 38.784zM626.355 652.646c-31.078-5.274-58.214-33.254-63.155-65.126-6.426-41.498 23.885-82.432 65.28-88.166 3.394-0.525 7.308-0.825 11.292-0.825 42.896 0 77.67 34.774 77.67 77.67 0 3.977-0.299 7.883-0.875 11.699l0.053-0.429c-6.016 42.522-47.462 72.448-90.266 65.178zM645.965 576c0-5.683-0.282-5.965-5.965-5.965-4.941 0-6.067 0.666-6.528 3.968-0.973 6.81 0.896 9.088 6.938 8.499 5.12-0.486 5.555-0.998 5.555-6.502zM322.176 304.768c19.871-16.082 37.256-33.963 52.337-53.698l0.552-0.753 10.675-14.208-2.995-5.35c-5.325-9.446-41.651-44.621-55.066-53.299-34.074-22.042-70.502-34.202-112.333-37.453l-12.493-0.947 1.126 14.080c3.147 41.818 16.939 79.873 38.644 112.165l-0.526-0.83c9.344 14.234 32.794 39.117 46.848 49.664 11.802 8.883 9.882 9.421 33.229-9.37z" />
<glyph unicode="&#xe91d;" glyph-name="search" d="M520.533 821.547c-113.237-11.307-214.571-82.176-264.619-184.96-21.295-42.612-33.76-92.832-33.76-145.963s12.465-103.351 34.63-147.894l-0.87 1.932c9.515-19.584 31.019-54.016 36.693-58.709 1.451-1.237 2.645-3.029 2.645-4.096 0-1.024-34.859-36.821-77.483-79.573-69.931-70.101-77.696-78.464-79.531-85.376-4.096-15.275 1.408-29.739 14.763-38.955 5.461-3.755 8.448-4.523 17.664-4.523 9.728-0.043 12.032 0.64 18.773 5.376 4.224 2.987 40.704 38.485 81.067 78.933s74.24 73.515 75.307 73.515c1.067 0 2.901-1.195 4.139-2.645 4.693-5.675 39.125-27.179 58.709-36.693 42.667-21.271 92.938-33.72 146.118-33.72 51.512 0 100.295 11.681 143.846 32.538l-2.007-0.866c68.662 33.024 122.986 86.729 155.928 152.944l0.872 1.936c21.294 42.599 33.759 92.804 33.759 145.92s-12.464 103.322-34.628 147.85l0.869-1.93c-55.39 111.441-168.452 186.68-299.086 186.68-11.904 0-23.662-0.625-35.243-1.843l1.444 0.123zM588.928 752.725c118.828-15.971 211.826-108.969 227.648-226.438l0.15-1.36c19.2-144.128-82.987-277.035-227.797-296.32-10.39-1.456-22.393-2.287-34.591-2.287-72.871 0-138.813 29.666-186.408 77.579l-0.014 0.015c-39.84 39.48-67.050 91.645-75.068 149.931l-0.154 1.365c-11.477 80.683 16.597 163.541 75.221 222.208 47.635 47.923 113.595 77.584 186.484 77.584 12.176 0 24.158-0.828 35.893-2.43l-1.364 0.152z" />
<glyph unicode="&#xe91e;" glyph-name="share" d="M751.411 871.066c-78.848-7.322-143.155-72.038-150.477-151.45-1.126-12.595 0-41.882 1.997-49.818 0.205-0.87-48.691-26.88-108.646-57.754l-109.056-56.166-11.827 11.725c-30.15 29.795-71.613 48.199-117.375 48.199-46.322 0-88.24-18.858-118.495-49.317l-0.009-0.009c-30.501-30.238-49.384-72.152-49.384-118.477s18.883-88.239 49.372-118.465l0.012-0.012c30.264-30.467 72.182-49.326 118.504-49.326 45.762 0 87.225 18.405 117.391 48.215l-0.016-0.016 11.827 11.725 109.056-56.166c59.955-30.874 108.851-56.883 108.646-57.754-0.626-4.199-1.315-10.354-1.851-16.554l-0.095-1.366c-0.522-4.948-0.82-10.689-0.82-16.5 0-46.251 18.876-88.094 49.344-118.244l0.014-0.014c30.238-30.501 72.152-49.384 118.477-49.384s88.239 18.883 118.465 49.372l0.012 0.012c30.501 30.238 49.384 72.152 49.384 118.477s-18.883 88.239-49.372 118.465l-0.012 0.012c-30.264 30.467-72.182 49.326-118.504 49.326-45.762 0-87.225-18.405-117.391-48.215l0.016 0.016-11.827-11.725-218.47 112.384 1.587 8.038c1.997 10.445 1.997 45.005 0 55.398l-1.587 8.090 218.47 112.384 11.827-11.776c30.12-29.797 71.558-48.205 117.296-48.205 5.536 0 11.009 0.27 16.406 0.797l-0.684-0.054c80.27 7.888 143.562 71.179 151.394 150.755l0.055 0.695c0.449 4.61 0.705 9.966 0.705 15.381 0 92.833-75.256 168.090-168.090 168.090-5.729 0-11.392-0.287-16.974-0.846l0.704 0.057zM791.245 788.685c28.57-7.629 53.76-32.87 61.491-61.645 1.229-4.71 2.253-15.053 2.253-23.040s-1.024-18.33-2.253-23.040c-8.858-29.747-31.775-52.714-60.849-61.479l-0.642-0.166c-6.998-1.421-15.042-2.234-23.275-2.234-8.138 0-16.091 0.794-23.785 2.31l0.776-0.127c-29.747 8.858-52.714 31.775-61.479 60.849l-0.166 0.642c-1.417 6.989-2.228 15.022-2.228 23.245s0.811 16.256 2.358 24.024l-0.129-0.78c8.905 29.416 31.472 52.168 60.128 61.163l0.646 0.175c10.394 2.918 36.403 2.97 47.155 0.102zM279.245 532.685c28.57-7.629 53.76-32.87 61.491-61.645 1.229-4.71 2.253-15.053 2.253-23.040s-1.024-18.33-2.253-23.040c-8.858-29.747-31.775-52.714-60.849-61.479l-0.642-0.166c-6.998-1.421-15.042-2.234-23.275-2.234-8.138 0-16.091 0.794-23.785 2.31l0.776-0.127c-29.747 8.858-52.714 31.775-61.479 60.849l-0.166 0.642c-1.417 6.989-2.228 15.022-2.228 23.245s0.811 16.256 2.358 24.024l-0.129-0.78c8.905 29.416 31.472 52.168 60.128 61.163l0.646 0.175c10.394 2.918 36.403 2.97 47.155 0.102zM791.245 276.685c28.57-7.629 53.76-32.87 61.491-61.645 1.229-4.71 2.253-15.053 2.253-23.040s-1.024-18.33-2.253-23.040c-8.858-29.747-31.775-52.714-60.849-61.479l-0.642-0.166c-6.998-1.421-15.042-2.234-23.275-2.234-8.138 0-16.091 0.794-23.785 2.31l0.776-0.127c-29.747 8.858-52.714 31.775-61.479 60.849l-0.166 0.642c-1.417 6.989-2.228 15.022-2.228 23.245s0.811 16.256 2.358 24.024l-0.129-0.78c8.905 29.416 31.472 52.168 60.128 61.163l0.646 0.175c10.394 2.918 36.403 2.97 47.155 0.102z" />
<glyph unicode="&#xe91f;" glyph-name="target-arrow" d="M490.675 866.688c-66.15-3.226-136.602-24.883-193.997-59.571-69.422-42.242-124.445-101.984-159.849-173.199l-1.099-2.442c-78.72-161.51-46.746-352.205 80.333-479.411 57.395-57.446 127.36-95.59 208.051-113.459 59.494-13.184 132.915-11.878 190.285 3.43 73.446 19.584 134.528 53.53 186.522 103.731 39.808 38.4 65.126 73.498 89.088 123.469 26.24 54.682 38.016 104.269 39.603 166.81 1.152 45.696-0.768 64.435-7.654 74.24-14.157 20.224-43.059 19.968-57.421-0.538l-5.197-7.373-0.128-48.947c-0.128-37.018-0.819-52.506-2.867-63.514-24.346-130.355-110.694-230.886-234.291-272.768-35.123-11.904-57.83-15.795-98.202-16.819-48.947-1.254-81.203 3.328-124.493 17.715-52.224 17.357-96.41 45.286-137.139 86.656-69.299 70.4-104.038 164.224-98.227 265.344 2.765 47.744 12.8 85.658 34.611 130.714 35.046 72.346 87.424 124.672 160.64 160.486 55.706 27.238 97.818 36.070 164.454 34.534 45.824-1.050 51.482 0.512 61.056 16.845 2.886 4.94 4.589 10.875 4.589 17.209 0 14.304-8.69 26.579-21.080 31.832l-0.226 0.085c-5.786 2.406-49.562 6.477-62.003 5.734l-15.36-0.794zM758.81 865.331c-7.834-2.074-12.877-6.733-79.642-73.651-70.63-70.835-71.27-71.552-73.139-80.512-1.126-5.504-1.869-31.181-1.869-65.715v-56.678l-66.125-66.074-13.133 1.766c-26.778 3.584-49.408-3.763-67.507-21.862-14.217-13.862-23.036-33.204-23.036-54.605s8.818-40.743 23.020-54.589l0.016-0.015c13.886-14.166 33.22-22.947 54.605-22.947s40.719 8.781 54.592 22.935l0.012 0.013c18.099 18.099 25.446 40.73 21.862 67.507l-1.766 13.133 66.074 66.125h56.678c34.534 0 60.211 0.742 65.715 1.869 8.96 1.869 9.677 2.509 80.486 73.139 68.403 68.224 71.526 71.603 73.702 80.026 3.405 13.056 0.102 24.32-9.83 33.715-10.547 9.958-16.794 10.931-70.554 10.931h-45.133v45.133c0 53.197-0.998 59.853-10.573 70.221-9.446 10.266-21.069 13.67-34.458 10.138zM735.872 690.355c1.434-3.302 5.683-8.781 9.472-12.186 8.806-7.936 18.176-10.010 45.338-10.010h20.787l-56.218-56.32h-79.411v79.334l55.475 55.552 0.973-25.216c0.64-16.922 1.818-27.136 3.584-31.155zM490.675 695.347c-55.987-4.634-108.621-28.723-150.707-68.915-43.162-41.216-69.222-95.462-75.494-157.107-5.862-57.6 13.005-122.957 49.28-170.65 45.866-60.268 117.639-98.776 198.407-98.776 49.846 0 96.266 14.667 135.181 39.921l-0.967-0.588c53.99 34.406 95.949 95.386 108.723 158.080 4.48 21.862 6.118 49.741 3.558 59.648-6.784 26.163-39.526 34.33-58.24 14.566-7.885-8.371-10.906-18.048-10.957-35.123-0.026-13.568-5.35-37.99-11.776-54.067-18.278-45.619-55.040-82.227-99.968-99.61-25.958-10.035-33.331-11.315-64.87-11.341-22.17-0.026-31.974 0.691-41.651 3.046-33.946 8.243-59.392 22.656-84.762 48-26.726 26.752-41.062 53.069-48.768 89.498-4.582 21.709-3.763 60.698 1.69 80.538 13.030 47.283 41.19 84.403 83.123 109.594 21.837 13.107 55.962 23.347 77.926 23.398 17.075 0.051 26.752 3.072 35.123 10.957 14.106 13.338 14.925 34.56 1.869 48.282-10.214 10.726-19.712 12.902-46.72 10.65z" />
<glyph unicode="&#xe921;" glyph-name="user-circle" d="M473.6 870.208c-55.086-5.723-105.447-20.806-151.241-43.675l2.537 1.147c-124.672-61.312-209.056-176.672-232.192-317.376-4.384-26.752-4.384-97.856 0-124.608 23.168-140.832 107.584-256.128 232.48-317.536 54.179-27.386 118.106-43.425 185.779-43.425 0.365 0 0.729 0 1.094 0.001h-0.056c47.68 0 86.944 6.336 132.896 21.472 127.543 42.646 226.095 141.156 267.935 265.705l0.865 2.967c15.168 45.856 21.568 85.216 21.568 133.12 0 47.68-6.336 86.944-21.472 132.896-49.28 149.888-176.512 258.528-334.368 285.44-15.552 2.656-29.952 3.648-59.744 4.032-5.946 0.144-12.951 0.226-19.975 0.226-9.179 0-18.326-0.14-27.438-0.418l1.333 0.032zM538.624 790.976c154.269-12.458 279.047-124.893 310.067-271.897l0.397-2.247c20.224-97.568-4.48-202.272-66.432-281.312-4.416-5.632-8.608-10.24-9.344-10.24s-4.992 4.608-9.504 10.24c-26.816 33.472-63.744 59.392-101.728 71.328-29.632 9.344-35.712 9.728-150.080 9.728-86.528 0-108.064-0.448-120.512-2.592-51.712-8.832-97.44-36.16-131.296-78.464-4.512-5.632-8.768-10.24-9.504-10.24s-4.928 4.608-9.344 10.24c-61.952 79.040-86.656 183.744-66.432 281.312 15.552 75.072 56.928 145.344 113.376 192.576 62.848 52.608 137.536 80.864 219.616 83.104 4.8 0.128 18.624-0.544 30.72-1.536zM484.416 698.944c-65.344-11.936-116.032-58.496-134.88-123.872-3.36-11.712-3.904-17.472-3.904-41.728s0.544-30.048 3.904-41.728c17.472-60.672 60.096-103.264 120.736-120.736 11.68-3.36 17.472-3.904 41.728-3.904 30.944 0 42.432 2.208 67.328 13.024 36.768 15.968 69.824 49.056 85.952 86.016 10.848 24.768 13.088 36.32 13.088 67.328 0 24.256-0.544 30.016-3.904 41.728-17.376 60.288-60.096 103.232-119.808 120.416-14.24 4.096-55.584 6.144-70.24 3.456zM525.28 620.32c15.648-2.56 27.136-7.392 39.2-16.576 21.701-16.097 35.611-41.632 35.611-70.416s-13.911-54.319-35.376-70.249l-0.235-0.167c-14.397-11.035-32.662-17.682-52.48-17.682s-38.083 6.648-52.688 17.835l0.208-0.153c-39.392 29.952-47.296 84.288-17.92 122.912 13.268 17.739 32.703 30.233 55.074 34.318l0.542 0.082c12.384 2.048 15.904 2.080 28.064 0.096zM614.176 236.288c29.024-3.616 59.904-19.712 80.064-41.728 9.504-10.4 19.168-25.376 17.376-27.008-4.768-4.448-32.352-20.64-48.576-28.544-44.073-22.065-96.024-34.981-150.992-34.981-39.251 0-76.964 6.586-112.093 18.713l2.413-0.724c-24.448 8.16-56.192 23.232-75.552 35.872-6.382 4.065-11.086 7.25-15.719 10.528l1.287-0.864c-1.792 1.632 7.872 16.608 17.376 27.008 19.36 21.12 51.296 38.208 77.792 41.632 16.736 2.144 189.6 2.24 206.624 0.096z" />
<glyph unicode="&#xe922;" glyph-name="world" d="M469.333 863.232c-154.88-17.493-284.928-114.901-343.083-256.939-19.806-46.842-31.317-101.307-31.317-158.46 0-129.010 58.648-244.322 150.736-320.73l0.687-0.554c60.885-50.304 132.821-81.536 213.547-92.715 24.917-3.456 79.275-3.456 104.192 0 162.645 22.485 294.101 131.285 344.704 285.312 13.739 41.728 19.883 81.707 19.883 128.853 0 36.352-2.347 58.667-9.685 91.349-33.493 149.504-148.352 270.251-295.381 310.571-51.029 13.995-106.155 18.773-154.283 13.312zM523.904 782.080c24.104-42.883 44.825-92.566 59.579-144.754l1.179-4.878c3.243-11.648 5.845-21.461 5.845-21.76s-35.328-0.555-78.507-0.555-78.507 0.427-78.507 0.981c0 2.688 12.587 45.184 18.475 62.293 12.672 37.035 35.499 87.893 52.309 116.565 6.869 11.733 9.472 10.709 19.627-7.893zM426.155 785.493l-12.16-27.307c-19.072-42.581-33.835-85.333-44.501-128.853l-4.736-19.2h-163.413l4.309 8.533c43.193 75.987 111.679 133.375 193.785 161.314l2.482 0.734c22.059 7.381 25.6 8.107 24.235 4.779zM622.293 780.587c84.504-28.649 152.919-85.993 195.143-160.183l0.91-1.737 4.309-8.533h-163.413l-4.736 19.2c-12.388 49.691-27.625 92.602-46.429 133.535l1.928-4.681-12.16 27.307c-1.365 3.285 1.664 2.688 24.448-4.907zM352.597 535.467c-6.357-41.003-6.357-133.931 0-174.933l0.981-6.4h-179.328l-1.835 6.4c-1.431 5.211-3.371 13.991-5.080 22.853l-0.509 3.174c-3.285 16.981-3.797 25.259-3.797 61.44s0.512 44.459 3.797 61.44c2.091 10.795 4.608 22.485 5.589 26.027l1.835 6.4h179.328l-0.981-6.4zM604.885 531.2c3.371-32.256 4.267-50.048 4.267-83.2s-0.896-50.944-4.267-83.2l-1.109-10.667h-91.989c-72.405 0-91.947 0.469-91.947 2.133-0.043 1.152-1.152 13.653-2.56 27.733-1.573 19.16-2.47 41.475-2.47 64s0.897 44.839 2.657 66.91l-0.187-2.91c1.408 14.080 2.517 26.581 2.56 27.733 0 1.664 19.541 2.133 91.947 2.133h91.989l1.109-10.667zM851.584 535.467c0.981-3.541 3.499-15.232 5.589-26.027 3.285-16.981 3.797-25.259 3.797-61.44s-0.512-44.459-3.797-61.44c-2.091-10.795-4.608-22.528-5.589-26.027l-1.835-6.4h-179.328l1.024 6.4c2.944 18.773 4.565 50.176 4.565 87.467s-1.621 68.693-4.565 87.467l-1.024 6.4h179.328l1.835-6.4zM368.64 270.080c12.552-51.056 28.134-95.218 47.436-137.319l-1.953 4.754c6.869-15.445 12.117-28.416 11.648-28.885-1.92-1.963-46.635 14.507-68.565 25.216-46.276 22.914-85.206 53.987-116.391 91.699l-0.473 0.589c-9.941 11.904-29.056 40.064-34.688 51.2l-4.309 8.533h163.499l3.797-15.787zM590.507 285.312c0-0.299-2.603-10.112-5.845-21.76-12.91-46.676-28.651-86.96-47.928-125.154l1.763 3.852c-17.365-34.773-22.997-44.117-26.581-44.117-7.168 0-42.24 72.789-59.947 124.459-5.888 17.109-18.475 59.605-18.475 62.293 0 0.555 35.328 0.981 78.507 0.981s78.507-0.256 78.507-0.555zM819.029 278.613c-11.947-23.552-34.517-53.248-59.477-78.165-30.336-30.379-56.064-48.768-94.123-67.285-21.248-10.325-65.323-26.411-67.243-24.533-0.469 0.512 3.456 10.453 8.747 22.101 17.988 38.233 34.278 83.48 46.402 130.402l1.214 5.534 4.693 19.2h163.456l-3.669-7.253z" />
<glyph unicode="&#xe924;" glyph-name="instagram" d="M364.373 958.919c-147.513-4.21-203.776-19.627-265.216-72.818-24.064-20.821-50.631-54.329-63.829-80.668-16.498-32.825-26.681-80.555-32.313-151.78-3.072-38.571-3.072-372.736 0-411.307 8.363-105.756 23.381-150.756 67.755-203.662 23.154-27.591 59.506-56.092 88.178-69.177 26.681-12.174 60.188-20.878 98.759-25.657 51.484-6.428 72.42-6.997 254.293-6.997s202.809 0.569 254.293 6.997c40.732 5.063 74.069 13.995 101.547 27.193 48.242 23.154 97.963 72.875 121.116 121.116 17.579 36.636 26.226 77.255 32.028 150.187 3.072 38.571 3.072 372.736 0 411.307-5.803 72.932-14.45 113.55-32.028 150.187-23.154 48.299-72.135 97.28-121.003 121.003-36.011 17.522-81.237 26.965-152.007 31.858-25.145 1.764-306.347 3.527-351.573 2.219zM814.99 782.108c12.345-6.372 22.528-17.010 28.672-30.037 4.722-10.012 5.348-13.141 5.348-25.884-0.057-18.887-5.575-31.801-18.944-44.43-13.824-13.084-21.845-16.156-42.439-16.156-15.132 0-18.148 0.512-26.453 4.608-12.743 6.258-23.324 17.067-29.696 30.379-4.722 9.956-5.291 12.686-5.234 26.453 0.057 13.312 0.74 16.668 5.006 25.486 7.566 15.758 21.788 28.16 38.457 33.621 2.332 0.74 11.548 1.138 20.48 0.91 13.54-0.398 17.636-1.252 24.804-4.949zM565.76 707.413c24.064-5.12 39.595-10.581 63.147-22.073 27.25-13.312 47.275-27.762 69.973-50.46 38.002-38.002 61.212-80.839 72.932-134.713 3.186-14.564 3.755-22.528 3.755-52.167s-0.569-37.604-3.755-52.167c-5.689-25.998-11.321-42.041-23.438-66.446-36.011-72.59-101.148-122.88-182.898-141.198-14.45-3.243-21.845-3.755-53.476-3.755s-39.026 0.512-53.476 3.755c-81.749 18.318-146.887 68.665-182.898 141.198-10.223 18.967-18.274 40.955-23.003 64.152l-0.265 1.555c-3.356 15.36-3.925 22.926-3.925 52.907s0.569 37.547 3.925 52.907c5.404 25.031 10.752 40.277 22.3 64 13.312 27.25 27.762 47.275 50.46 69.973 41.643 41.586 88.576 65.536 147.513 75.15 21.675 3.527 70.884 2.162 93.127-2.617zM491.52 622.080c-47.37-5.985-88.247-29.882-116.303-64.575l-0.262-0.335c-19.285-24.121-31.516-52.338-36.238-83.57-1.493-7.697-2.347-16.549-2.347-25.6s0.854-17.903 2.486-26.479l-0.139 0.879c12.004-79.474 74.411-139.321 154.965-148.651 56.775-6.599 117.020 18.091 153.657 62.919 29.582 36.181 44.146 84.594 38.969 129.65-4.578 42.794-24.103 80.33-53.171 107.903l-0.077 0.072c-22.857 21.792-51.583 37.624-83.566 44.884l-1.198 0.229c-11.568 2.194-24.874 3.449-38.474 3.449-6.442 0-12.819-0.282-19.118-0.833l0.817 0.058z" />
<glyph unicode="&#xe925;" glyph-name="facebook" horiz-adv-x="569" d="M362.551-64v467.094h164.676l24.655 182.036h-189.335v116.222c0 52.704 15.37 88.618 94.755 88.618l101.245 0.046v162.811c-17.511 2.214-77.615 7.172-147.531 7.172-145.978 0-245.917-84.832-245.917-240.624v-134.245h-165.098v-182.036h165.098v-467.088l197.452-0.006z" />
<glyph unicode="&#xe926;" glyph-name="linkedin" d="M0 846.715c0 32.837 11.532 59.927 34.595 81.27s53.046 32.015 89.946 32.015c36.242 0 65.564-10.507 87.969-31.523 23.063-21.672 34.595-49.911 34.595-84.718 0-31.523-11.202-57.791-33.606-78.807-23.063-21.672-53.375-32.508-90.935-32.508h-0.988c-36.243 0-65.565 10.836-87.969 32.508s-33.606 48.926-33.606 81.762zM12.849-15.241v658.042h219.428v-658.042h-219.428zM353.853-15.241h219.427v367.44c0 22.989 2.64 40.719 7.908 53.196 9.227 22.329 23.228 41.21 42.007 56.643s42.337 23.149 70.673 23.149c73.802 0 110.706-49.582 110.706-148.746v-351.681h219.426v377.293c0 97.195-23.063 170.912-69.188 221.152s-107.082 75.359-182.858 75.359c-85.003 0-151.228-36.448-198.673-109.345v-1.97h-0.99l0.99 1.97v93.583h-219.427c1.318-21.015 1.977-86.358 1.977-196.032s-0.659-263.672-1.977-462.009z" />
<glyph unicode="&#xe927;" glyph-name="telegram" horiz-adv-x="1144" d="M1144.471 923.725l-181.031-945.096c0 0-25.329-65.524-94.913-34.099l-417.691 331.643-1.937 0.976c56.421 52.465 493.928 459.821 513.047 478.285 29.606 28.597 11.228 45.622-23.142 24.019l-646.253-424.999-249.323 86.873c0 0-39.236 14.453-43.011 45.879-3.824 31.478 44.302 48.502 44.302 48.502l1016.412 412.91c0 0 83.54 38.010 83.54-24.894v0z" />
<glyph unicode="&#xe928;" glyph-name="youtube" horiz-adv-x="1463" d="M756.202-62.405l-297.124 5.552c-96.2 1.938-192.641-1.924-286.956 18.117-143.475 29.952-153.639 176.816-164.275 300.009-14.655 173.191-8.982 349.525 18.674 521.269 15.613 96.367 77.055 153.87 172.074 160.127 320.757 22.709 643.644 20.018 963.695 9.423 33.799-0.971 67.833-6.28 101.164-12.322 164.52-29.471 168.528-195.9 179.193-336.001 10.635-141.548 6.151-283.822-14.182-424.409-16.311-116.4-47.514-214.009-179.2-223.429-164.988-12.325-326.195-22.243-491.652-19.090 0.007 0.753-0.944 0.753-1.412 0.753zM581.521 232.284c124.336 72.953 246.303 144.691 369.921 217.155-124.562 72.954-246.297 144.691-369.921 217.156v-434.311z" />
</font>
</defs>
</svg>
